Szmata

Members
  • Content count

    1,108
  • Joined

  • Last visited

Community Reputation

0 Neutral

About Szmata

  • Rank
    Elite
  1. Victoria and Abdul (2017) BDRip x264-GECKOS Queen Victoria strikes up an unlikely friendship with a young Indian clerk named Abdul Karim. ▄▀▀▀▀▄ ▄▀▀▀▀▀▄▄▀▀ ▄█▌ █ ▄▄▀▀▀▀▀▄▀▀▀▄ ▄▄▄ ▄▀ ██▓▄ ████▓ ▀▀ ▄▄██▓▄ ▄▓ ▀▄▀▀▀▄ ▄▀▀ ▄ ▀▀▄ ▄▄▀ ▄██▓▀ ▄█▓▀▐█▓ ▄██▓▀▀██▓▐██▌ ▓▄ ▀▀▀▀▀▀▀▄▀ ▄████▌ █ ▄▀▀ ▄▄██▓▀ ▐██▌ ██▓▀ ▐██▌ █▓▀▐██▌ ▐█▓ ▄█▓▀▀▓▄ ▄█▓ ▓▀ █ █ ▄██▓▀▀ ▄▄▄▄▄▀█▓▄ ▀ ██▌ ██▓ ▄▓▀ ▐█▓ ▐█▓ ▀█▓▄▄▄▄▄ ▀▀▄ █ ███▌ ▐██▓▀▄█▌ ▀█▓▄▐█▓ ▀██▓▀▀▓▄▐█▓ █▌▄▄▄▄ ▀▀██▓▄ █ █ ▀██▓▄ ▄███▌▐██▌ ▐██▌██▌ ▐█▓▐█▌ ▐█▌██▌ █▐██▌ ▐██▓ █ ▀▀▀▀▀▀ ▀▀▀████▓ ███▓▄▄▄███▓▐█▓▄ ▄██▌██▌ █▓▐█▓ ▄█▌██▓▄ ▄██▓▀ ▀▀▀▀▀▀▀ ▀ ▄▄████████ █▐███▓ ▄ ▀▀█████▀▀▄▄▀▀███▓▀▄▐█▌███▐██▄▀▀▀▀ ████▓▀▀▀ ▄ ▄█████▄▄ ▀ ██▓ █ ▀▄▀▄ ███▌ ▀ ▓▀ ▀▀▀▀ ▄▀▄▀ █ ▓██ ██▓ ▐▌ ▐▌ ▀▓ ▐▌ ▐▌ ▓██ ▐█▓ ▀ ▄▀ ▄▄▄▄▀▀▀▀▀▀▄ ▀▄ ▀ ▓█▌ ▐██▀▀▀ ▄▄▄▀▀ ▄▄▄▄███▓▄ ▀▄ ▀▀▀██▌ ▀▀ ▄▀ ▄▄▄▀██████████▓ █ ▀▀ ▀▀▀▀▀▀▄ ▄▀ ▄███▓ ██████████▌ █ ██▓▄ ▀ ▐▄▀▀▀▄██████████▓ █ Victoria.and.Abdul.2017.BDRip.x264-GECKOS ██▓▀ ██████████▓▀▀▀█▓ █ Date : 07.12.2017 ▓▀▀ ▄ ▐████████▓▀▄██▓▀ ▄▀ URL : http://www.imdb.com/title/tt5816682 ▓▀▀██▓ █████████▓▄▀█▓▀ █ Video : X264 @ crf 19 ▌ ▄███████████▓▀ ▄▀ Resolution : 720x302 ▄ ▄▄▄███████████▓▀▀ ▀▄▄▄▄▄ Size : 535MB (561237563 Bytes) █████████████▓▀ ▄▄ ▄▄▄ █ Audio : AAC LC 2ch 48.0 KHz █████████████▓ ██▓ ██▓▀ ▀▄ Language : English █████████████▓ ▀▓▄▄█▓▀ ▄▄ ▀▄ Subtitles : English █████████████▓ ██████████▓ █ Runtime : 1h 51mn ████████████▓▄▄▄███████▓▄ ▀▀ ▄▀ ██████▓ █████████▓▀ ▄ ██▓ ▄▀ ▄▄▄▄▄▄▄▄▄▄▄▄▄▄▄▄▄▄▄▄▄▄▄▄▄▄▄▄▄▄▄▄▄▄▄▄▄▄▀▄ ▄ ▓██ ███████▓ ▀███▓▀▀ ▄▀ ▀▄ ▀ ▄▀ ▐▌▐▌ ▓█▌ ████████▌ ▄▄▄▄▀▀▀ ▀▀▀ Notes ▀▄▀▄██▌ ████████▓ ▀▄▄▄▄▄ ▀▀ ████████▓ ▄▄ ▀▄▄▀▀▀▀▄ ████████▓ ▄███▓▄ █▓ ▀▄ ████████▌▄██████▓ ▄█▓▄▓▀ █ ██████▓▀▄████████████▓▄▄▄ █ ████████████▓▄▀██▓▀█▓▄ ▀ ▄▀ ████████████▓▀ ▀ ▄▄ ▀▀ █ ███████████▓▄ █ ▀▀▀▀ ▄▄▄▄▄▄▄▄▄▄▄▄▄▄▄▄▄▄▄▄▄▄▄▄▄▄▄▄▄▄▄▄▄▄▄▄▄▄▄▄▄▄▄▄▄▄▄▄▄▄▄▄▄▄ ▄▀▀███████████▓▄ ▀▄ ▐▌ ▄█ ▓██ ██▓▄ ▀▀████████▓▄ ▀▄ Greetings ▀▄▄▀ ▀▄██▌ ███▓▀ ▄▄▄ ▀███████▓▄ ▀▄ ▀▀ ▓▀ ▄▀ ▀▄ ▀▀██████▓▄ █ ▓▄ █ SiLK^ ▀▀▄ ▀██████▄ █ Nobody, we have no friends. █▓ █ 0nd pH7 ▀▄ █████▓ █ ▄ ▄▄▄▀ ▄▄▄▄▄▄ █ █████▓ █ ▄ ▐██▄ ▄▄▀▀▀ ▄▄▄▄ ▀▀ ▄█████▓ █ ▐▌ ▓███ ▄▀ ▄▄████████████████▓▀ █ ▄▀▄▀▄▄▓████▀ ▄█████████████████▓▀ ▄▀ ▄ nfo by 0ND & pH7 of SiLK ▄ ▄ ▄█████████▀▀ ████▓▀ ▄▄▄▄▄ ▀▀▀▀ ▄▄▀ ██▓▀ ▄▀ ▀▀▀▀▀▀▀ ██▓ ▀▄ ███▓▄ ▀▀▀▄▄▄▄▄ ▀▀█████▓▄▄▄▄▄ ▀▀▀▄▄▄ ▀▄ ▀▀██████████▓▄▄▄ ▀▄ ▀▀▄▄▄▄▄ ▀▀▀▀█████▓▄ █ ▀▀▀▀▄▄▄ ▀██▓ █ ▄▀ █▓ ▄▀ █ █▓ ▄▀ █ ▓ █ ▀▄ ▓ █ ▀▄▄▄▀ https://rg.to/file/a3f79ac26a37634459dafc8829be474f/2017-GECKOS.rar.html http://nitroflare.com/view/52B87185B8EB429/2017-GECKOS.rar
  2. The Man with the Iron Heart (2017) BDRip x264-PSYCHD Subs: http://www53.zippyshare.com/v/W0vpISbs/file.html 1942: The Third Reich is at its peak. The Czech resistance in London decides to plan the most ambitious military operation of WWII: Anthropoid. Two young recruits in their late twenties, Jozef Gabcik and Jan Kubis, are sent to Prague to assassinate the most ruthless Nazi leader - Reich-protector Reinhard Heydrich, Head of the SS, the Gestapo, and the architect of the "Final Solution". oooo .o8 `888 "888 oo.ooooo. .oooo.o oooo ooo .ooooo. 888 .oo. .oooo888 888' `88b d88( "8 `88. .8' d88' `"Y8 888P"Y88b d88' `888 888 888 `"Y88b. `88..8' 888 888 888 888 888 888 888 o. )88b `888' 888 .o8 888 888 888 888 888bod8P' 8""888P' .8' `Y8bod8P' o888o o888o `Y8bod88P" 888 .o..P' o888o `Y8P' The.Man.with.the.Iron.Heart.2017.BDRip.x264-PSYCHD Date..............: 12/2017 IMDB..............: http://www.imdb.com/title/tt3296908/ Ratings...........: 6.4/10 4,485 votes Runtime...........: 02:00:17 Video.............: 720x302 / 23.976fps / CRF 19 Notes.............: aka "HHhH" and "Killing Heydrich" (the title on this blu-ray) "Your worst inhibitions tend to psych you out in the end." https://rg.to/file/f034940f65a8fc304adf53b66c8f9dac/Iron.Heart.2017-PSYCHD.rar.html http://nitroflare.com/view/960DEA9D411FE87/Iron.Heart.2017-PSYCHD.rar
  3. Mother (2017) BDRip x264-DRONES A couple's relationship is tested when uninvited guests arrive at their home, disrupting their tranquil existence. D R O N E S drop Mother.2017.BDRip.x264-DRONES on your head Sitrep Visual : 720x302 crf 19 23.976 Acoustic : English AAC LC 2ch 48.0 KHz Textual : English Target Size : 561MB Mission Info : http://www.imdb.com/title/tt5109784 https://rg.to/file/136dc93e2cb696028d6079fdb33cd100/2017-DRONES.rar.html http://nitroflare.com/view/8DF3A63DCA2E86F/2017-DRONES.rar
  4. Inheritance (2017) 1080p WEB-DL DD5.1 H264-FGT http://www.imdb.com/title/tt5485578/ When Mara returns to her childhood home of Belize for her father's 70th birthday, she brings her new lover Aaron and hopes to reconnect with her estranged father and brother Ben who both live there. She is surprised when Linda, her father's protégée, picks them up; Linda tells Mara that her father has just died. Mara is upset but lies about calling Ben. Linda brings them to a gathering in honor of her father and Mara and Aaron sleep alone at his house. Furious he wasn't informed, Ben barges in on Aaron and Mara there, and tensions build between the three of them. Mara runs off for a tryst with Aaron, and Ben overdoses on their father's medications, forcing Mara to care for him. The wake starts, an all-night affair, and Mara, drunk, reveals buried secrets about her father, changing irrevocably the relationships of those closest to him. Video ID : 1 Format : AVC Format/Info : Advanced Video Codec Format profile : [email protected] Format settings : CABAC / 4 Ref Frames Format settings, CABAC : Yes Format settings, ReFrames : 4 frames Codec ID : V_MPEG4/ISO/AVC Duration : 1 h 16 min Bit rate : 5 082 kb/s Width : 1 920 pixels Height : 1 080 pixels Display aspect ratio : 16:9 Frame rate mode : Constant Frame rate : 23.976 FPS Color space : YUV Chroma subsampling : 4:2:0 Bit depth : 8 bits Scan type : Progressive Bits/(Pixel*Frame) : 0.102 Stream size : 2.72 GiB (91%) Title : Inheritance.2017.1080p.WEB-DL.DD5.1.H264-FGT Language : English Default : Yes Forced : No Color range : Limited Color primaries : BT.709 Transfer characteristics : BT.709 Matrix coefficients : BT.709 Audio ID : 2 Format : AC-3 Format/Info : Audio Coding 3 Codec ID : A_AC3 Duration : 1 h 16 min Bit rate mode : Constant Bit rate : 384 kb/s Channel(s) : 6 channels Channel positions : Front: L C R, Side: L R, LFE Sampling rate : 48.0 kHz Frame rate : 31.250 FPS (1536 SPF) Bit depth : 16 bits Compression mode : Lossy Stream size : 211 MiB (7%) Title : Inheritance.2017.1080p.WEB-DL.DD5.1.H264-FGT Language : English Service kind : Complete Main Default : Yes Forced : No Menu 00:00:00.000 : en:1 00:11:27.228 : en:2 00:21:06.724 : en:3 00:31:58.625 : en:4 00:41:46.628 : en:5 00:52:47.455 : en:6 01:02:53.393 : en:7 01:13:04.212 : en:8 http://nitroflare.com/view/2B128002F7CBA4A/Inheritance.2017.1080p.WEB-DL.DD5.1.H264-FGT.part1.rar http://nitroflare.com/view/F73925265E9CFC4/Inheritance.2017.1080p.WEB-DL.DD5.1.H264-FGT.part2.rar http://nitroflare.com/view/AC42AA946391B9A/Inheritance.2017.1080p.WEB-DL.DD5.1.H264-FGT.part3.rar http://nitroflare.com/view/20C4A93F3D80FBF/Inheritance.2017.1080p.WEB-DL.DD5.1.H264-FGT.part4.rar https://rg.to/file/b91a5b03788499bd30c1c91af1fb97a1/Inheritance.2017.1080p.WEB-DL.DD5.1.H264-FGT.part1.rar.html https://rg.to/file/baf231c2106b6f13ea8cb43877b5457a/Inheritance.2017.1080p.WEB-DL.DD5.1.H264-FGT.part2.rar.html https://rg.to/file/f21240a474f5cb2f2eb42372769fae81/Inheritance.2017.1080p.WEB-DL.DD5.1.H264-FGT.part3.rar.html https://rg.to/file/7e3ba6f6594deb1403b7934e7c1c9ecc/Inheritance.2017.1080p.WEB-DL.DD5.1.H264-FGT.part4.rar.html
  5. Victoria and Abdul (2017) 720p BluRay x264-GECKOS Queen Victoria strikes up an unlikely friendship with a young Indian clerk named Abdul Karim. ▄▀▀▀▀▄ ▄▀▀▀▀▀▄▄▀▀ ▄█▌ █ ▄▄▀▀▀▀▀▄▀▀▀▄ ▄▄▄ ▄▀ ██▓▄ ████▓ ▀▀ ▄▄██▓▄ ▄▓ ▀▄▀▀▀▄ ▄▀▀ ▄ ▀▀▄ ▄▄▀ ▄██▓▀ ▄█▓▀▐█▓ ▄██▓▀▀██▓▐██▌ ▓▄ ▀▀▀▀▀▀▀▄▀ ▄████▌ █ ▄▀▀ ▄▄██▓▀ ▐██▌ ██▓▀ ▐██▌ █▓▀▐██▌ ▐█▓ ▄█▓▀▀▓▄ ▄█▓ ▓▀ █ █ ▄██▓▀▀ ▄▄▄▄▄▀█▓▄ ▀ ██▌ ██▓ ▄▓▀ ▐█▓ ▐█▓ ▀█▓▄▄▄▄▄ ▀▀▄ █ ███▌ ▐██▓▀▄█▌ ▀█▓▄▐█▓ ▀██▓▀▀▓▄▐█▓ █▌▄▄▄▄ ▀▀██▓▄ █ █ ▀██▓▄ ▄███▌▐██▌ ▐██▌██▌ ▐█▓▐█▌ ▐█▌██▌ █▐██▌ ▐██▓ █ ▀▀▀▀▀▀ ▀▀▀████▓ ███▓▄▄▄███▓▐█▓▄ ▄██▌██▌ █▓▐█▓ ▄█▌██▓▄ ▄██▓▀ ▀▀▀▀▀▀▀ ▀ ▄▄████████ █▐███▓ ▄ ▀▀█████▀▀▄▄▀▀███▓▀▄▐█▌███▐██▄▀▀▀▀ ████▓▀▀▀ ▄ ▄█████▄▄ ▀ ██▓ █ ▀▄▀▄ ███▌ ▀ ▓▀ ▀▀▀▀ ▄▀▄▀ █ ▓██ ██▓ ▐▌ ▐▌ ▀▓ ▐▌ ▐▌ ▓██ ▐█▓ ▀ ▄▀ ▄▄▄▄▀▀▀▀▀▀▄ ▀▄ ▀ ▓█▌ ▐██▀▀▀ ▄▄▄▀▀ ▄▄▄▄███▓▄ ▀▄ ▀▀▀██▌ ▀▀ ▄▀ ▄▄▄▀██████████▓ █ ▀▀ ▀▀▀▀▀▀▄ ▄▀ ▄███▓ ██████████▌ █ ██▓▄ ▀ ▐▄▀▀▀▄██████████▓ █ Victoria.and.Abdul.2017.720p.BluRay.x264-GECKOS ██▓▀ ██████████▓▀▀▀█▓ █ Date : 07.12.2017 ▓▀▀ ▄ ▐████████▓▀▄██▓▀ ▄▀ URL : http://www.imdb.com/title/tt5816682 ▓▀▀██▓ █████████▓▄▀█▓▀ █ X264 bitrate : 5526Kbps ▌ ▄███████████▓▀ ▄▀ Resolution : 1280x536 ▄ ▄▄▄███████████▓▀▀ ▀▄▄▄▄▄ Size : 5589MB (5860906430 Bytes) █████████████▓▀ ▄▄ ▄▄▄ █ Audio : DTS 1509Kbps 6ch █████████████▓ ██▓ ██▓▀ ▀▄ Language : English █████████████▓ ▀▓▄▄█▓▀ ▄▄ ▀▄ Subtitles : English █████████████▓ ██████████▓ █ Runtime : 1h 51mn ████████████▓▄▄▄███████▓▄ ▀▀ ▄▀ ██████▓ █████████▓▀ ▄ ██▓ ▄▀ ▄▄▄▄▄▄▄▄▄▄▄▄▄▄▄▄▄▄▄▄▄▄▄▄▄▄▄▄▄▄▄▄▄▄▄▄▄▄▀▄ ▄ ▓██ ███████▓ ▀███▓▀▀ ▄▀ ▀▄ ▀ ▄▀ ▐▌▐▌ ▓█▌ ████████▌ ▄▄▄▄▀▀▀ ▀▀▀ Notes ▀▄▀▄██▌ ████████▓ ▀▄▄▄▄▄ ▀▀ ████████▓ ▄▄ ▀▄▄▀▀▀▀▄ ████████▓ ▄███▓▄ █▓ ▀▄ ████████▌▄██████▓ ▄█▓▄▓▀ █ ██████▓▀▄████████████▓▄▄▄ █ ████████████▓▄▀██▓▀█▓▄ ▀ ▄▀ ████████████▓▀ ▀ ▄▄ ▀▀ █ ███████████▓▄ █ ▀▀▀▀ ▄▄▄▄▄▄▄▄▄▄▄▄▄▄▄▄▄▄▄▄▄▄▄▄▄▄▄▄▄▄▄▄▄▄▄▄▄▄▄▄▄▄▄▄▄▄▄▄▄▄▄▄▄▄ ▄▀▀███████████▓▄ ▀▄ ▐▌ ▄█ ▓██ ██▓▄ ▀▀████████▓▄ ▀▄ Greetings ▀▄▄▀ ▀▄██▌ ███▓▀ ▄▄▄ ▀███████▓▄ ▀▄ ▀▀ ▓▀ ▄▀ ▀▄ ▀▀██████▓▄ █ ▓▄ █ SiLK^ ▀▀▄ ▀██████▄ █ Nobody, we have no friends. █▓ █ 0nd pH7 ▀▄ █████▓ █ ▄ ▄▄▄▀ ▄▄▄▄▄▄ █ █████▓ █ ▄ ▐██▄ ▄▄▀▀▀ ▄▄▄▄ ▀▀ ▄█████▓ █ ▐▌ ▓███ ▄▀ ▄▄████████████████▓▀ █ ▄▀▄▀▄▄▓████▀ ▄█████████████████▓▀ ▄▀ ▄ nfo by 0ND & pH7 of SiLK ▄ ▄ ▄█████████▀▀ ████▓▀ ▄▄▄▄▄ ▀▀▀▀ ▄▄▀ ██▓▀ ▄▀ ▀▀▀▀▀▀▀ ██▓ ▀▄ ███▓▄ ▀▀▀▄▄▄▄▄ ▀▀█████▓▄▄▄▄▄ ▀▀▀▄▄▄ ▀▄ ▀▀██████████▓▄▄▄ ▀▄ ▀▀▄▄▄▄▄ ▀▀▀▀█████▓▄ █ ▀▀▀▀▄▄▄ ▀██▓ █ ▄▀ █▓ ▄▀ █ █▓ ▄▀ █ ▓ █ ▀▄ ▓ █ ▀▄▄▄▀ http://nitroflare.com/view/B197E7C5D5A9D3D/vikab.g7.mkv http://nitroflare.com/view/7308A67538413FF/vikab.g7.part1.rar http://nitroflare.com/view/42EF9428FFC8B9F/vikab.g7.part2.rar http://nitroflare.com/view/9F22213A636519F/vikab.g7.part3.rar http://nitroflare.com/view/12A16F44E512476/vikab.g7.part4.rar http://nitroflare.com/view/29DF02A3E674578/vikab.g7.part5.rar http://nitroflare.com/view/9A78120C79C41FE/vikab.g7.part6.rar https://rg.to/file/0e8b7229aaa0fd62ec47435d90f8ec1f/vikab.g7.part1.rar.html https://rg.to/file/76070467de62e5d4f0100599ae4520c4/vikab.g7.part2.rar.html https://rg.to/file/d241313bbe8334fda87ab0e761ea87ec/vikab.g7.part3.rar.html https://rg.to/file/83853324539f42fe8078c9775c61aac0/vikab.g7.part4.rar.html https://rg.to/file/d53aeb771b087ba57f56ce80fcd06f9f/vikab.g7.part5.rar.html https://rg.to/file/2942cb13ecc52292467881ec67f5dbb8/vikab.g7.part6.rar.html
  6. The Man with the Iron Heart (2017) 1080p BluRay x264-PSYCHD 1942: The Third Reich is at its peak. The Czech resistance in London decides to plan the most ambitious military operation of WWII: Anthropoid. Two young recruits in their late twenties, Jozef Gabcik and Jan Kubis, are sent to Prague to assassinate the most ruthless Nazi leader - Reich-protector Reinhard Heydrich, Head of the SS, the Gestapo, and the architect of the "Final Solution". oooo .o8 `888 "888 oo.ooooo. .oooo.o oooo ooo .ooooo. 888 .oo. .oooo888 888' `88b d88( "8 `88. .8' d88' `"Y8 888P"Y88b d88' `888 888 888 `"Y88b. `88..8' 888 888 888 888 888 888 888 o. )88b `888' 888 .o8 888 888 888 888 888bod8P' 8""888P' .8' `Y8bod8P' o888o o888o `Y8bod88P" 888 .o..P' o888o `Y8P' The.Man.with.the.Iron.Heart.2017.1080p.BluRay.x264-PSYCHD Date..............: 12/2017 IMDB..............: http://www.imdb.com/title/tt3296908/ Ratings...........: 6.4/10 4,485 votes Runtime...........: 02:00:17 Video.............: 1920x808 / 23.976fps Audio.............: AC-3 5.1 640kbps Notes.............: aka "HHhH" and "Killing Heydrich" (the title on this blu-ray) "Your worst inhibitions tend to psych you out in the end." Subs: http://www53.zippyshare.com/v/W0vpISbs/file.html http://nitroflare.com/view/A5FA32EFC38621A/iron-psyh1.mkv http://nitroflare.com/view/F84ECC9AF890B9C/iron-psyh1.part01.rar http://nitroflare.com/view/8DAAE1C6597358A/iron-psyh1.part02.rar http://nitroflare.com/view/FA1D80014688954/iron-psyh1.part03.rar http://nitroflare.com/view/BED4548192C4753/iron-psyh1.part04.rar http://nitroflare.com/view/5700D499EB27F37/iron-psyh1.part05.rar http://nitroflare.com/view/060B6A5F77C113C/iron-psyh1.part06.rar http://nitroflare.com/view/7EEB9878C1A7574/iron-psyh1.part07.rar http://nitroflare.com/view/AD93B3A1E531AA2/iron-psyh1.part08.rar http://nitroflare.com/view/B376CF4678BB12C/iron-psyh1.part09.rar http://nitroflare.com/view/F541B991650DCB0/iron-psyh1.part10.rar https://rg.to/file/3ad6872bfc8e0ad0f3297b1e7469aa2b/iron-psyh1.part01.rar.html https://rg.to/file/ab8cbb6ec2dd901ba1b55c30950b8ed9/iron-psyh1.part02.rar.html https://rg.to/file/aecda57aafe28931040e1070b85af5cc/iron-psyh1.part03.rar.html https://rg.to/file/bfc31a59c5d91d02e0fb21ba9f7f2acc/iron-psyh1.part04.rar.html https://rg.to/file/c2d09b052ccaeaf8da6b3a1562f966d4/iron-psyh1.part05.rar.html https://rg.to/file/6014e25827c9f4e03ae3592f68aacb9b/iron-psyh1.part06.rar.html https://rg.to/file/c33ccbad3840de8cb93d281dd88c175c/iron-psyh1.part07.rar.html https://rg.to/file/60d78cda239679274a4252317833be88/iron-psyh1.part08.rar.html https://rg.to/file/8de9a77ecc9b62d597b3a5217f66558d/iron-psyh1.part09.rar.html https://rg.to/file/5ec66085329dfa1d6a1436c520212713/iron-psyh1.part10.rar.html
  7. Mother (2017) 720p BluRay x264-DRONES A couple's relationship is tested when uninvited guests arrive at their home, disrupting their tranquil existence. D R O N E S drop Mother.2017.720p.BluRay.x264-DRONES on your head Sitrep Visual : 1280x536 4522Kbps 23.976 Acoustic : English AC-3 640Kbps 6ch Textual : English Target Size : 4476MB Mission Info : http://www.imdb.com/title/tt5109784 http://nitroflare.com/view/F7A3663F60E55E8/DERMO.7.DRONES.mkv https://rg.to/file/ee0b3a482f5cd43bb5b2abbbf80206a5/DERMO.7.DRONES.part1.rar.html https://rg.to/file/b1082949b3db395b74835f21573570ad/DERMO.7.DRONES.part2.rar.html https://rg.to/file/bef04c1e1f08d769581742d1f57e5932/DERMO.7.DRONES.part3.rar.html https://rg.to/file/0eb06f6f2bee42e9e8c7d1e11d845480/DERMO.7.DRONES.part4.rar.html https://rg.to/file/4f7f868c05545418c31b584651d676fe/DERMO.7.DRONES.part5.rar.html http://nitroflare.com/view/226EBAB326BF72E/DERMO.7.DRONES.part1.rar http://nitroflare.com/view/34B9A1285F2590B/DERMO.7.DRONES.part2.rar http://nitroflare.com/view/E310E3649217B18/DERMO.7.DRONES.part3.rar http://nitroflare.com/view/CF1F94C0F2C078F/DERMO.7.DRONES.part4.rar http://nitroflare.com/view/222EB33AB02BD3A/DERMO.7.DRONES.part5.rar
  8. Mother (2017) 1080p BluRay x264-DRONES A couple's relationship is tested when uninvited guests arrive at their home, disrupting their tranquil existence. D R O N E S drop Mother.2017.1080p.BluRay.x264-DRONES on your head Sitrep Visual : 1920x808 8744Kbps 23.976 Acoustic : English AC-3 640Kbps 6ch Textual : English Target Size : 8132MB Mission Info : http://www.imdb.com/title/tt5109784 http://nitroflare.com/view/959B3C4F870049A/DERMO.1.DRONES.mkv http://nitroflare.com/view/9CACC035F2CE4FA/DERMO.1.DRONES.part01.rar http://nitroflare.com/view/0E0826263A938D9/DERMO.1.DRONES.part02.rar http://nitroflare.com/view/54EB17831D39A7D/DERMO.1.DRONES.part03.rar http://nitroflare.com/view/5844461F5B52BCE/DERMO.1.DRONES.part04.rar http://nitroflare.com/view/C469A549566578F/DERMO.1.DRONES.part05.rar http://nitroflare.com/view/47B47ED6C9FD891/DERMO.1.DRONES.part06.rar http://nitroflare.com/view/9036F61AEBA9002/DERMO.1.DRONES.part07.rar http://nitroflare.com/view/DD3F497DEA35202/DERMO.1.DRONES.part08.rar http://nitroflare.com/view/48ACE24AFB84D67/DERMO.1.DRONES.part09.rar https://rg.to/file/b26efb3579c0aaaaad16b503373c8d62/DERMO.1.DRONES.part01.rar.html https://rg.to/file/892d777d62ac880c7256fa91a0f996ff/DERMO.1.DRONES.part02.rar.html https://rg.to/file/6c135822ca06c6894d69008602c0bdda/DERMO.1.DRONES.part03.rar.html https://rg.to/file/981dc12b69c9dcc39f2b1cfa3ac68953/DERMO.1.DRONES.part04.rar.html https://rg.to/file/f47b542243fff370173dc423ce2a53b5/DERMO.1.DRONES.part05.rar.html https://rg.to/file/95fba61107b762bef804955b00c426dc/DERMO.1.DRONES.part07.rar.html https://rg.to/file/36672de1d519a6b1d9b581d538670e7d/DERMO.1.DRONES.part08.rar.html https://rg.to/file/0a632318a7260568073778770c1f34da/DERMO.1.DRONES.part09.rar.html
  9. Kingsman The Golden Circle (2017) 1080p BluRay DTS x264-DON Size: 15.7 GiB Video: Format : AVC Bit rate : 14.1 Mbps Width : 1 920 pixels Height : 804 pixels Frame rate : 23.976 fps Audio: Format : DTS Bit rate : 1 510 Kbps Channels : 6 channels Sampling rate : 48.0 KHz Compression mode : Lossy https://rg.to/file/87d3a4197854dd3c40b5845dc48b946d/goldenDON.part01.rar.html https://rg.to/file/3616fdce3ad55e8553590061e81b8376/goldenDON.part02.rar.html https://rg.to/file/48be7d337d54b8ba6cbfcd80f17d9043/goldenDON.part03.rar.html https://rg.to/file/fb051647c13a43225b083b005958f7cf/goldenDON.part04.rar.html https://rg.to/file/75c5cfc06dd7369f625934759ae0e9fd/goldenDON.part05.rar.html https://rg.to/file/153cd1b1a81030493c8664c2ccd8ddb2/goldenDON.part06.rar.html https://rg.to/file/6170f3f349d64da08e787daaf3f39d47/goldenDON.part07.rar.html https://rg.to/file/564df2aeb0ed982242f7b698c5f8d9d9/goldenDON.part08.rar.html https://rg.to/file/a7a808708800463adcc733b8e5c02822/goldenDON.part09.rar.html https://rg.to/file/85cfe3e09a55879f7ef23f96bf76666b/goldenDON.part10.rar.html https://rg.to/file/e40c1ddc7e8f40b372518ded365c4c46/goldenDON.part11.rar.html https://rg.to/file/d363719084dd5e9eb97e9dabedf451fa/goldenDON.part12.rar.html https://rg.to/file/efbca285811dfef050512d60eb2241f5/goldenDON.part13.rar.html https://rg.to/file/67fd7261c2f730bfa99755fa95a87447/goldenDON.part14.rar.html https://rg.to/file/f182d4488aec6f44ce776e820f4cee9e/goldenDON.part15.rar.html https://rg.to/file/76e8f432f883491407c8cd86a19ce3b6/goldenDON.part16.rar.html https://rg.to/file/4e517edf5dfbddb3bbd67646d524d31c/goldenDON.part17.rar.html http://nitroflare.com/view/A44A29A743E2010/goldenDON.part01.rar http://nitroflare.com/view/55A646786A2AE78/goldenDON.part02.rar http://nitroflare.com/view/5D940AFE0C239D5/goldenDON.part03.rar http://nitroflare.com/view/EF5C8D1592D515A/goldenDON.part04.rar http://nitroflare.com/view/EF7257E6A9BB104/goldenDON.part05.rar http://nitroflare.com/view/6E3D4F37599C26D/goldenDON.part06.rar http://nitroflare.com/view/D6D256D2A946B50/goldenDON.part07.rar http://nitroflare.com/view/E4C0206F73E3006/goldenDON.part08.rar http://nitroflare.com/view/3A262509D2431F4/goldenDON.part09.rar http://nitroflare.com/view/4E2C876B98ADDBC/goldenDON.part10.rar http://nitroflare.com/view/24A8190696CD4AB/goldenDON.part11.rar http://nitroflare.com/view/9A2F29E9FF1BF09/goldenDON.part12.rar http://nitroflare.com/view/E1FF25B1195DEF4/goldenDON.part13.rar http://nitroflare.com/view/1BE10A3A2C5EE6A/goldenDON.part14.rar http://nitroflare.com/view/F0FD3D8E918037D/goldenDON.part15.rar http://nitroflare.com/view/551EF3CFB0B339C/goldenDON.part16.rar http://nitroflare.com/view/665955C3B97170D/goldenDON.part17.rar 5GB: http://nitroflare.com/view/A68B4E96236BD92/5.goldenDON.part1.rar http://nitroflare.com/view/2D253A30D2E9225/5.goldenDON.part2.rar http://nitroflare.com/view/F2CEC5AA84198B2/5.goldenDON.part3.rar http://nitroflare.com/view/F23F4BCE6944D03/5.goldenDON.part4.rar https://rg.to/file/ee37f130f7870822075970327d27132b/5.goldenDON.part1.rar.html https://rg.to/file/dd85e3e7640e33dbadfe45838c95b1b3/5.goldenDON.part2.rar.html https://rg.to/file/226d91161c0a970c21f3470b7167c0fe/5.goldenDON.part3.rar.html https://rg.to/file/b402177da384b2e83ee9a9bd297cd7d6/5.goldenDON.part4.rar.html
  10. Dunkirk (2017) 1080p BluRay x264 DTS-HD MA 5.1-HDChina Dunkirk.2017.1080p.BluRay.x264.DTS-HD.MA.5.1-HDChina -----------------------------------MEDiA iNFO----------------------------------- SOURCE TYPE.....: BluRay.AVC.DTS-HD.MA.5.1 ViDEO BiTRATE...: x264 L4.1 High @ 14500 Kbps FRAME RATE......: 23.976 fps AUDiO...........: English DTS-HD MA 5.1 @ 2411 Kbps RUNTiME.........: 1:46:38.266 (h:m:s.ms) ASPECT RATiO....: 16:9 RESOLUTiON......: 1920x1080 SUBTiTLES.......: English SDH FilE SiZE.......: 12.6 GB Encoder.........: avs @ HDChina ------------------------------------x264 iNFO----------------------------------- x264 [info]: frame I:944 Avg QP:13.88 size:187424 x264 [info]: frame P:43580 Avg QP:16.02 size:109722 x264 [info]: frame B:108881 Avg QP:17.10 size: 60959 x264 [info]: consecutive B-frames: 5.1% 6.5% 20.9% 26.2% 14.1% 21.0% 3.1% 1.5% 1.6% 5GB: https://rg.to/file/95fb9ec2b157f5aa3b9536749232a2e9/5.dkirkHDChina.part1.rar.html https://rg.to/file/7a1acce5afa06ea38d52d885048426b5/5.dkirkHDChina.part2.rar.html https://rg.to/file/d038ca9704201bfcab36ff4b7a192fb1/5.dkirkHDChina.part3.rar.html http://nitroflare.com/view/D192835DEEF5B37/5.dkirkHDChina.part1.rar http://nitroflare.com/view/0513CD2054232E1/5.dkirkHDChina.part2.rar http://nitroflare.com/view/28740789611F162/5.dkirkHDChina.part3.rar 1GB: http://nitroflare.com/view/CDA24ECA3B0EECB/dkirkHDChina.part01.rar http://nitroflare.com/view/997194130BE42F5/dkirkHDChina.part02.rar http://nitroflare.com/view/A8581C04296670F/dkirkHDChina.part03.rar http://nitroflare.com/view/5F4E96A9C57C8E7/dkirkHDChina.part04.rar http://nitroflare.com/view/292430893F60241/dkirkHDChina.part05.rar http://nitroflare.com/view/C8B8CBCE3CE9FD9/dkirkHDChina.part06.rar http://nitroflare.com/view/64E8CBD2E35861A/dkirkHDChina.part07.rar http://nitroflare.com/view/CBDE939EED44C9C/dkirkHDChina.part08.rar http://nitroflare.com/view/72607B7DE1BE76F/dkirkHDChina.part09.rar http://nitroflare.com/view/EAD5289F15D4EDC/dkirkHDChina.part10.rar http://nitroflare.com/view/7E8F8DD6B18FF37/dkirkHDChina.part11.rar http://nitroflare.com/view/882424B92551C3B/dkirkHDChina.part12.rar http://nitroflare.com/view/FEDA336077190E6/dkirkHDChina.part13.rar http://nitroflare.com/view/3410423809BFB2D/dkirkHDChina.part14.rar https://rg.to/file/6501883cb7955485ee47af62ade36bd4/dkirkHDChina.part01.rar.html https://rg.to/file/ba726e4f50b6973fe56c3966e09ce7b5/dkirkHDChina.part02.rar.html https://rg.to/file/c0a3c740ac9eff871f0f7003b2ef0fc3/dkirkHDChina.part03.rar.html https://rg.to/file/102f0425ba38bd31011bab3f98ac5eb3/dkirkHDChina.part04.rar.html https://rg.to/file/be87012cdf7eb7602fb205ca74613b03/dkirkHDChina.part05.rar.html https://rg.to/file/0b273c5e5e369edb7dce2daa39b76afd/dkirkHDChina.part06.rar.html https://rg.to/file/de7f2fadac7098c71864933ad3161427/dkirkHDChina.part07.rar.html https://rg.to/file/f1b92b13479b7aa812442d51f8ff5933/dkirkHDChina.part08.rar.html https://rg.to/file/46fb1c3338f1a9fc75f7a084f6b958af/dkirkHDChina.part09.rar.html https://rg.to/file/66ab5eb3a9c5e8c293676dca6905c126/dkirkHDChina.part10.rar.html https://rg.to/file/4b0c2f64ba149b8caaf18381d6154a31/dkirkHDChina.part11.rar.html https://rg.to/file/b0158a603f0dabc3ff2dd1b909853bf7/dkirkHDChina.part12.rar.html https://rg.to/file/9ff5e3a436ee558046b78e354b0075a6/dkirkHDChina.part13.rar.html https://rg.to/file/f46c4fc2f25e914dc1ce93e3954a0c1b/dkirkHDChina.part14.rar.html
  11. Bad Genius (2017) 1080p BluRay x264-WiKi Subs: http://www59.zippyshare.com/v/AXWBwczQ/file.html Video ID : 1 Format : AVC Format/Info : Advanced Video Codec Format profile : [email protected] Format settings : CABAC / 5 Ref Frames Format settings, CABAC : Yes Format settings, ReFrames : 5 frames Codec ID : V_MPEG4/ISO/AVC Duration : 2 h 9 min Bit rate : 12.0 Mb/s Width : 1 920 pixels Height : 804 pixels Display aspect ratio : 2.40:1 Frame rate mode : Constant Frame rate : 24.000 FPS Color space : YUV Chroma subsampling : 4:2:0 Bit depth : 8 bits Scan type : Progressive Bits/(Pixel*Frame) : 0.323 Stream size : 10.9 GiB (84%) Writing library : x264 core 129 r2245 bc13772 Encoding settings : cabac=1 / ref=5 / deblock=1:-3:-3 / analyse=0x3:0x133 / me=umh >> / subme=11 / psy=1 / psy_rd=1.05:0.05 / mixed_ref=1 / me_range=64 / chroma_me=1 / trellis=2 / 8x8dct=1 >> / cqm=0 / deadzone=21,11 / fast_pskip=0 / chroma_qp_offset=-3 / threads=12 / lookahead_threads=2 / >> sliced_threads=0 / nr=0 / decimate=1 / interlaced=0 / bluray_compat=0 / constrained_intra=0 / >> bframes=8 / b_pyramid=2 / b_adapt=2 / b_bias=0 / direct=3 / weightb=1 / open_gop=0 / weightp=2 / >> keyint=250 / keyint_min=24 / scenecut=40 / intra_refresh=0 / rc_lookahead=60 / rc=2pass / mbtree=1 / >> bitrate=11982 / ratetol=1.0 / qcomp=0.60 / qpmin=0 / qpmax=69 / qpstep=4 / cplxblur=20.0 / >> qblur=0.5 / vbv_maxrate=40000 / vbv_bufsize=30000 / nal_hrd=none / ip_ratio=1.40 / aq=1:0.80 Language : English Default : Yes Forced : No Audio #1 ID : 2 Format : DTS Format/Info : Digital Theater Systems Codec ID : A_DTS Duration : 2 h 9 min Bit rate mode : Constant Bit rate : 1 509 kb/s Channel(s) : 6 channels Channel positions : Front: L C R, Side: L R, LFE Sampling rate : 48.0 kHz Frame rate : 93.750 FPS (512 SPF) Bit depth : 16 bits Compression mode : Lossy Stream size : 1.37 GiB (11%) Language : Thai Default : Yes Forced : No Audio #2 ID : 3 Format : AC-3 Format/Info : Audio Coding 3 Codec ID : A_AC3 Duration : 2 h 9 min Bit rate mode : Constant Bit rate : 640 kb/s Channel(s) : 6 channels Channel positions : Front: L C R, Side: L R, LFE Sampling rate : 48.0 kHz Frame rate : 31.250 FPS (1536 SPF) Bit depth : 16 bits Compression mode : Lossy Stream size : 595 MiB (4%) Title : ?? Language : Chinese Service kind : Complete Main Default : No Forced : No Audio #3 ID : 4 Format : AC-3 Format/Info : Audio Coding 3 Codec ID : A_AC3 Duration : 2 h 9 min Bit rate mode : Constant Bit rate : 192 kb/s Channel(s) : 2 channels Channel positions : Front: L R Sampling rate : 48.0 kHz Frame rate : 31.250 FPS (1536 SPF) Bit depth : 16 bits Compression mode : Lossy Stream size : 178 MiB (1%) Title : ??? Language : Chinese Service kind : Complete Main Default : No Forced : No Text #1 ID : 5 Format : UTF-8 Codec ID : S_TEXT/UTF8 Codec ID/Info : UTF-8 Plain Text Duration : 2 h 3 min Bit rate : 28 b/s Count of elements : 1300 Stream size : 26.1 KiB (0%) Title : ?? Language : Chinese Default : Yes Forced : No Text #2 ID : 6 Format : UTF-8 Codec ID : S_TEXT/UTF8 Codec ID/Info : UTF-8 Plain Text Duration : 2 h 3 min Bit rate : 28 b/s Count of elements : 1300 Stream size : 26.1 KiB (0%) Title : ?? Language : Chinese Default : No Forced : No Lynn, a genius high school student who makes money by cheating tests, receives a new task that leads her to set foot on Sydney, Australia. In order to complete the millions-Baht task, Lynn and her classmates have to finish the international STIC(SAT) exam and deliver the answers back to her friends in Thailand before the exam takes place once again in her home country. http://www.imdb.com/title/tt6788942/ http://nitroflare.com/view/9F2F619ADD4C7B9/wikiB.part01.rar http://nitroflare.com/view/DDDC2AC3B5DB8A6/wikiB.part02.rar http://nitroflare.com/view/EBB2E9484AD5033/wikiB.part03.rar http://nitroflare.com/view/B0712A720E69EA5/wikiB.part04.rar http://nitroflare.com/view/320E15DE66D3BA7/wikiB.part05.rar http://nitroflare.com/view/52772CD5C03E879/wikiB.part06.rar http://nitroflare.com/view/3DDA0106C74CC54/wikiB.part07.rar http://nitroflare.com/view/361B2AD55654625/wikiB.part08.rar http://nitroflare.com/view/C30262E35D44609/wikiB.part09.rar http://nitroflare.com/view/FF594036D653D5E/wikiB.part10.rar http://nitroflare.com/view/27049B6AB650564/wikiB.part11.rar http://nitroflare.com/view/EAE02A8348A49D2/wikiB.part12.rar http://nitroflare.com/view/B9F070E30AD9EC7/wikiB.part13.rar http://nitroflare.com/view/E97E7CE20C55301/wikiB.part14.rar https://rg.to/file/5cc0607b2724a3bc08f43418fe2e3246/wikiB.part01.rar.html https://rg.to/file/db778616bf58260ef26f61318eedc16c/wikiB.part02.rar.html https://rg.to/file/e05e95c2562122432da4eccb6f708e53/wikiB.part03.rar.html https://rg.to/file/760696cf2d6d8e8b1e52dc7969ce767c/wikiB.part04.rar.html https://rg.to/file/3b8c9a8b53dded3b610380534bc094c9/wikiB.part05.rar.html https://rg.to/file/c0a3334db9157d42161e7342b11e8c5c/wikiB.part06.rar.html https://rg.to/file/da2d7c2c8900525b0cbec24f58a3ab5e/wikiB.part07.rar.html https://rg.to/file/057e9b34e6db4755d19aa8950c04cef5/wikiB.part08.rar.html https://rg.to/file/31a431da8f32763df5c6d272847099ad/wikiB.part09.rar.html https://rg.to/file/5894c7880d901ddafb36c4be7eb6b6d2/wikiB.part10.rar.html https://rg.to/file/dcbff13de22df1eb3865d3fe32d77968/wikiB.part11.rar.html https://rg.to/file/3a4432b46f5ca669019ad7f62ba7d290/wikiB.part12.rar.html https://rg.to/file/039cad20ed9b5a2cc0a59a6e9c3f7719/wikiB.part13.rar.html https://rg.to/file/f6aa5614577a62103259758525f60f85/wikiB.part14.rar.html
  12. Vikings S05E03 HDTV x264-KILLERS & 720p HDTV x264-KILLERS Homeland - Celebrations are cut short in the aftermath of the battle at York; Ragnar Lothbrok's sons are pitted against each other as tensions reach an all-time high, and each is forced to choose a side. Vikings.S05E03.HDTV.x264-KILLERS https://rg.to/file/a7b49486b7671cbc8fb6d7fb8b261bf1/brikings.503.rar.html http://nitroflare.com/view/982D9DA6EE60FB0/brikings.503.rar Vikings.S05E03.720p.HDTV.x264-KILLERS http://nitroflare.com/view/3B7F697DC95C860/brikings.503.720.part1.rar http://nitroflare.com/view/D935765ABD8455C/brikings.503.720.part2.rar https://rg.to/file/25d3491cf37b9126d84be6119dc9940e/brikings.503.720.part1.rar.html https://rg.to/file/b666ab011d46bafe83aafc1ec246710e/brikings.503.720.part2.rar.html
  13. Vikings S05E03 1080p WEB H264-STRiFE Homeland - Celebrations are cut short in the aftermath of the battle at York; Ragnar Lothbrok's sons are pitted against each other as tensions reach an all-time high, and each is forced to choose a side. Vikings S05E03 1080p WEB H264-STRiFE https://rg.to/file/fac184bf111919b309dec3fe8f233e96/brings.503.1080.web.h264-strife.mkv.html http://nitroflare.com/view/14BD9BB24B8AD81/brings.503.1080.web.h264-strife.mkv http://nitroflare.com/view/6D3628BB7C4D79A/brings.503.1080.web.h264-strife.part1.rar http://nitroflare.com/view/CF5D053CBC4B7AC/brings.503.1080.web.h264-strife.part2.rar http://nitroflare.com/view/2A9A93E55B39BAF/brings.503.1080.web.h264-strife.part3.rar https://rg.to/file/45a994b18ee617629769c640010bba6f/brings.503.1080.web.h264-strife.part1.rar.html https://rg.to/file/2b19f65d00bca0842390cfd0c5c8adfc/brings.503.1080.web.h264-strife.part2.rar.html https://rg.to/file/66d54f53c31fd6ff0310be774a278bbb/brings.503.1080.web.h264-strife.part3.rar.html
  14. Teachers 2016 S02E15 1080p Amazon WEB-DL DD2.0 x264-TrollHD Season 02, Episode 15 - "Hot Date" Ms. Bennigan decides to ask Hot Dad out during a chicken pox epidemic at the school. Ms. Snap discovers she has a gender bias. Teachers.2016.S02E15.1080p.Amazon.WEB-DL.DD.2.0.x264-TrollHD https://rg.to/file/88f9f8a0e850bbd7fa34780744cfe982/Teachers.2016.S02E15.1080p.Amazon.WEB-DL.DD.2.0.x264-TrollHD.part1.rar.html https://rg.to/file/a85ce69c1344879110075ce8f025d1b5/Teachers.2016.S02E15.1080p.Amazon.WEB-DL.DD.2.0.x264-TrollHD.part2.rar.html http://nitroflare.com/view/D3E7217D50EAF67/Teachers.2016.S02E15.1080p.Amazon.WEB-DL.DD.2.0.x264-TrollHD.part1.rar http://nitroflare.com/view/36B5BE13BDE750C/Teachers.2016.S02E15.1080p.Amazon.WEB-DL.DD.2.0.x264-TrollHD.part2.rar
  15. South Park S21E10 HDTV x264-SVA & 720p HDTV x264-AVS Splatty Tomato - The children of South Park claim to have seen Mr. Garrison lurking around town, and the townspeople are angry that the president is scaring their kids. South.Park.S21E10.HDTV.x264-SVA http://nitroflare.com/view/EC94D389D062055/S2110-SVA.rar https://rg.to/file/1cc34d0b37adcb31cfd3c4bd2ac3edb6/S2110-SVA.rar.html South.Park.S21E10.720p.HDTV.x264-AVS https://rg.to/file/e1540c7a6947314f68b09abd244631e4/S2110.720-AVS.rar.html http://nitroflare.com/view/5028ED1B9BD58A6/S2110.720-AVS.rar