Sign in to follow this  
Sa!n7 SaRca5m

Judwaa 2 (2017) Download Hindi Movie 2CD - DesiSCR - x264 - UpMix - AC3 5.1 - DUS

Recommended Posts

Judwaa 2 (2017) Download Hindi Movie 2CD - DesiSCR - x264 - UpMix - AC3 5.1 - DUS

Judwaa 2 (2017) 2CD - DesiSCR - x264 - AC5 5.1 - Upmix - DUS

judwaa-2-3.jpg

InFo

Quote


Video
ID : 1
Format : AVC
Format/Info : Advanced Video Codec
Format profile : [email protected]
Format settings : CABAC / 4 Ref Frames
Format settings, CABAC : Yes
Format settings, RefFrames : 4 frames
Codec ID : V_MPEG4/ISO/AVC
Duration : 2 h 21 min
Bit rate : 1 107 kb/s
Width : 720 pixels
Height : 304 pixels
Display aspect ratio : 2.35:1
Frame rate mode : Constant
Frame rate : 23.976 (24000/1001) FPS
Color space : YUV
Chroma subsampling : 4:2:0
Bit depth : 8 bits
Scan type : Progressive
Bits/(Pixel*Frame) : 0.211
Stream size : 1.09 GiB (74%)
Forced : No

Audio
ID : 2
Format : AC-3
Format/Info : Audio Coding 3
Format settings, Endianness : Big
Codec ID : A_AC3
Duration : 2 h 21 min
Bit rate mode : Constant
Bit rate : 384 kb/s
Channel(s) : 6 channels
Channel positions : Front: L C R, Side: L R, LFE
Sampling rate : 48.0 kHz
Frame rate : 31.250 FPS (1536 SPF)
Bit depth : 16 bits
Compression mode : Lossy
Stream size : 389 MiB (26%)
Service kind : Complete Main
Default : Yes
Forced : No

Screenshots

Quote

Download Links

Quote

~Extreme Seeding Started~
Please click 'Thanks' as a token of appreciation of our effort.

QnC2C27.png

[ZippyMovieZ.XYZ] Judwaa 2 (2017) Hindi 2CD - DesiSCR - x264 - UpMix - AC3 5.1 - DUS.torrent

Magnet link

Share this post


Link to post
Share on other sites

Create an account or sign in to comment

You need to be a member in order to leave a comment

Create an account

Sign up for a new account in our community. It's easy!

Register a new account

Sign in

Already have an account? Sign in here.

Sign In Now

Sign in to follow this