~ Hacker ~

Savitri (2016) Dowwnload Telugu Movie HDRip x264 700MB

Recommended Posts

~ Hacker ~    15

Savitri (2016) Dowwnload Telugu Movie HDRip x264 700MB

savitri-new-movie-poster.jpg

InFo

Quote

Format                                   : Matroska
Format version                           : Version 4 / Version 2
File size                                : 711 MiB
Duration                                 : 2 h 3 min
Overall bit rate                         : 803 kb/s
Movie name                               : www.zippymoviez.xyz
Encoded date                             : UTC 2017-10-09 11:52:22
Writing application                      : mkvmerge v7.8.0 ('River Man') 64bit built on Mar 27 2015 16:31:37
Writing library                          : libebml v1.3.1 + libmatroska v1.4.2

Video
ID                                       : 1
Format                                   : AVC
Format/Info                              : Advanced Video Codec
Format profile                           : [email protected]
Format settings                          : CABAC / 4 Ref Frames
Format settings, CABAC                   : Yes
Format settings, RefFrames               : 4 frames
Codec ID                                 : V_MPEG4/ISO/AVC
Duration                                 : 2 h 3 min
Bit rate                                 : 705 kb/s
Width                                    : 640 pixels
Height                                   : 272 pixels
Display aspect ratio                     : 2.35:1
Frame rate mode                          : Constant
Frame rate                               : 25.000 FPS
Color space                              : YUV
Chroma subsampling                       : 4:2:0
Bit depth                                : 8 bits
Scan type                                : Progressive
Bits/(Pixel*Frame)                       : 0.162
Stream size                              : 625 MiB (88%)
Title                                    : www.zippymoviez.xyz
Writing library                          : x264 core 148 r2744 b97ae06
Encoding settings                        : cabac=1 / ref=3 / deblock=1:0:0 / analyse=0x3:0x113 / me=hex / subme=7 / psy=1 / psy_rd=1.00:0.00 / mixed_ref=1 / me_range=16 / chroma_me=1 / trellis=1 / 8x8dct=1 / cqm=0 / deadzone=21,11 / fast_pskip=1 / chroma_qp_offset=-2 / threads=8 / lookahead_threads=1 / sliced_threads=0 / nr=0 / decimate=1 / interlaced=0 / bluray_compat=0 / constrained_intra=0 / bframes=3 / b_pyramid=2 / b_adapt=1 / b_bias=0 / direct=1 / weightb=1 / open_gop=0 / weightp=2 / keyint=250 / keyint_min=25 / scenecut=40 / intra_refresh=0 / rc_lookahead=40 / rc=2pass / mbtree=1 / bitrate=705 / ratetol=1.0 / qcomp=0.60 / qpmin=0 / qpmax=69 / qpstep=4 / cplxblur=20.0 / qblur=0.5 / ip_ratio=1.40 / aq=1:1.00
Language                                 : English
Default                                  : Yes
Forced                                   : No

Audio
ID                                       : 2
Format                                   : MPEG Audio
Format version                           : Version 1
Format profile                           : Layer 3
Format settings                          : Joint stereo / MS Stereo
Mode                                     : Joint stereo
Mode extension                           : MS Stereo
Codec ID                                 : A_MPEG/L3
Codec ID/Hint                            : MP3
Duration                                 : 2 h 3 min
Bit rate mode                            : Constant
Bit rate                                 : 96.0 kb/s
Channel(s)                               : 2 channels
Sampling rate                            : 48.0 kHz
Frame rate                               : 41.667 FPS (1152 SPF)
Compression mode                         : Lossy
Stream size                              : 85.1 MiB (12%)
Title                                    : www.zippymoviez.xyz
Writing library                          : LAME3.99.5
Language                                 : English
Default                                  : Yes
Forced                                   : No
 

 

Screenshots

e6aa8eda2007538a62ebaa235ac7bbec.png
7c994d13f423d1e8ceb66a319f623df2.png
094ca011b884b5428eb54e5508b22fe0.png
833fbf6f08d54a14f8fb15cedb9f6040.png
965cd05b30a7dc24ac8a24e9e697fe19.png
a452dfa6912eab3647724127893c9837.png
8c600425ddb58731eed212defe2c8042.png
aa1e5a744c576d601d38a729894f23d0.png
884f0338bc110fbee9771c1b9aa82516.png

Download Links

Quote

 

Please click 'Thanks' as a token of appreciation of our effort.

QnC2C27.png

www.zippymoviez.xyz- Savitri (2016) Telugu HDRip x264 700MB.mkv.torrent

Magnet Link

 

  • Like 1
  • Thanks 1

Share this post


Link to post
Share on other sites

Create an account or sign in to comment

You need to be a member in order to leave a comment

Create an account

Sign up for a new account in our community. It's easy!

Register a new account

Sign in

Already have an account? Sign in here.

Sign In Now