~ Hacker ~

Varnyathil Aashanka (2017) Malayalam DVDRip x264 5.1 700MB ESubs

Recommended Posts

~ Hacker ~    15

Varnyathil Aashanka (2017) Malayalam DVDRip Download  x264 5.1 700MB ESubs

Varnyathil-Aashanka-Malayalam-Movie-Revi

Info

Quote

Video
ID                                       : 1
Format                                   : AVC
Format/Info                              : Advanced Video Codec
Format profile                           : [email protected]
Format settings                          : CABAC / 4 Ref Frames
Format settings, CABAC                   : Yes
Format settings, RefFrames               : 4 frames
Codec ID                                 : V_MPEG4/ISO/AVC
Duration                                 : 2 h 15 min
Bit rate mode                            : Variable
Bit rate                                 : 627 kb/s
Maximum bit rate                         : 40.0 Mb/s
Width                                    : 640 pixels
Height                                   : 272 pixels
Display aspect ratio                     : 2.35:1
Frame rate mode                          : Constant
Frame rate                               : 23.976 (24000/1001) FPS
Color space                              : YUV
Chroma subsampling                       : 4:2:0
Bit depth                                : 8 bits
Scan type                                : Progressive
Bits/(Pixel*Frame)                       : 0.150
Stream size                              : 606 MiB (87%)
 

Audio
ID                                       : 2
Format                                   : AAC
Format/Info                              : Advanced Audio Codec
Format profile                           : HE-AAC / LC
Format settings                          : Explicit
Codec ID                                 : A_AAC-2
Duration                                 : 2 h 15 min
Bit rate                                 : 93.8 kb/s
Channel(s)                               : 6 channels
Channel positions                        : Front: L C R, Side: L R, LFE
Sampling rate                            : 48.0 kHz / 24.0 kHz
Frame rate                               : 23.438 FPS (1024 SPF)
Compression mode                         : Lossy
Delay relative to video                  : 31 ms
Stream size                              : 90.7 MiB (13%)
Default                                  : Yes
Forced                                   : No

Text
ID                                       : 3
Format                                   : UTF-8
Codec ID                                 : S_TEXT/UTF8
Codec ID/Info                            : UTF-8 Plain Text
Duration                                 : 2 h 9 min
Bit rate                                 : 78 b/s
Count of elements                        : 2491
Stream size                              : 74.3 KiB (0%)
Default                                  : No
Forced                                   : No

982f8f35989c178fe652ae2afc25cee5.png
d5d61c2860bceccd171a70366297e3ca.png
a0e3539cfb191e43c50a57331424f4e8.png
7a5b08692702e934bf5325c31b9c0a1c.png
0d49bb6a5664ee6521c8657a11b0c347.png
b75725fcb6652e3f7667e9f2ea419401.png
653908cf78caf7553598ef86489bd9e4.png
39c3f9013051a8da20f952bae8fb306b.png
2995cb098ea57e8508009a6efed3611e.png
50e27c19cad7a88b5ac1fa73810a9d69.png

Watch Online

Quote

Download Links

Quote

Please click 'Thanks' as a token of appreciation of our effort.

QnC2C27.png

www.zippymoviez.xyz - Varnyathil Aashanka (2017) Malayalam DVDRip x264 5.1 700MB ESubs.mkv.torrent

Magnet Link

Please Seed Back After Download 

 

  • Thanks 1

Share this post


Link to post
Share on other sites
Loading...


Create an account or sign in to comment

You need to be a member in order to leave a comment

Create an account

Sign up for a new account in our community. It's easy!

Register a new account

Sign in

Already have an account? Sign in here.

Sign In Now