~ Hacker ~

Varnyathil Aashanka (2017) Malayalam DVDRip x 264 Mp3 400MB Esub

Recommended Posts

~ Hacker ~    15

Varnyathil Aashanka (2017) Malayalam DVDRip x 264  Mp3 400MB Esub

Varnyathil-Aashanka-Malayalam-Movie-Revi

Info

Quote

Video
ID                                       : 1
Format                                   : AVC
Format/Info                              : Advanced Video Codec
Format profile                           : [email protected]
Format settings                          : CABAC / 4 Ref Frames
Format settings, CABAC                   : Yes
Format settings, RefFrames               : 4 frames
Codec ID                                 : V_MPEG4/ISO/AVC
Duration                                 : 2 h 15 min
Bit rate                                 : 328 kb/s
Width                                    : 640 pixels
Height                                   : 280 pixels
Display aspect ratio                     : 2.25:1
Frame rate mode                          : Constant
Frame rate                               : 23.976 (24000/1001) FPS
Color space                              : YUV
Chroma subsampling                       : 4:2:0
Bit depth                                : 8 bits
Scan type                                : Progressive
Bits/(Pixel*Frame)                       : 0.076
Stream size                              : 317 MiB (77%)
Title                                    : www.zippymoviez.xyz
 

Audio
ID                                       : 2
Format                                   : MPEG Audio
Format version                           : Version 1
Format profile                           : Layer 3
Format settings                          : Joint stereo / MS Stereo
Mode                                     : Joint stereo
Mode extension                           : MS Stereo
Codec ID                                 : A_MPEG/L3
Codec ID/Hint                            : MP3
Duration                                 : 2 h 15 min
Bit rate mode                            : Variable
Bit rate                                 : 96.0 kb/s
Channel(s)                               : 2 channels
Sampling rate                            : 48.0 kHz
Frame rate                               : 41.667 FPS (1152 SPF)
Compression mode                         : Lossy
Stream size                              : 93.2 MiB (23%)
Title                                    : www.zippymoviez.xyz
Writing library                          : LAME3.99r
Encoding settings                        : -m j -V 4 -q 3 -lowpass 15.1 --abr 96
Language                                 : Malayalam
Default                                  : Yes
Forced                                   : No

Screens

097fcffe0a6a20875df583744c2ba63e.png
24411c3fc349f05fd83779540ac941e6.png
115f703f7784581916418f44eea88849.png
335f76ae88d957361b63e62f04f54f79.png
 

Watch Online

Quote

Download Links

Quote

Please click 'Thanks' as a token of appreciation of our effort.

QnC2C27.png

www.zippymoviez.xyz - Varnyathil Aashanka (2017) Malayalam DVDRip x 264 Mp3 400MB Esub.torrent

Magnet link

Share this post


Link to post
Share on other sites
Loading...


Create an account or sign in to comment

You need to be a member in order to leave a comment

Create an account

Sign up for a new account in our community. It's easy!

Register a new account

Sign in

Already have an account? Sign in here.

Sign In Now